幽游白书剧场版01 / Yu Yu Hakusho The Movie 01 1993 25th Anniversary JPN Blu-ray Remux 1080p AVC LPCM 2.0
幽游白书剧场版01 / Yu Yu Hakusho The Movie 01 1993 25th Anniversary JPN Blu-ray Remux 1080p AVC LPCM 2.0
admin 发布于 2020-02-15 04:45

BD BOX 1 thanks to [email protected] BOX 2, 3 and 4 thanks to [email protected]
Blu-ray BOX:https://nyaa.si/view/1173147

 

幽☆遊☆白書 劇場版「幽☆遊☆白書」
中文字幕:https://assrt.net/xml/sub/626/626626.xml
自己批量改名、改字体、转繁体……

 

电视动画等10天左右再分享吧,现在我有东西在上传,一起上传只会导致你只能慢速完成下载。

 

 

 

 

 

 

General
Complete name                  : Yu Yu Hakusho The Movie - 01.mkv
Format                         : Matroska
Format version                 : Version 4
File size                      : 6.87 GiB
Duration                       : 25 min 16 s
Overall bit rate mode          : Variable
Overall bit rate               : 38.9 Mb/s

Video
ID                             : 1
Format                         : AVC
Format/Info                    : Advanced Video Codec
Format profile                 : [email protected]
Format settings                : CABAC / 4 Ref Frames
Format settings, CABAC         : Yes
Format settings, Reference fra : 4 frames
Codec ID                       : V_MPEG4/ISO/AVC
Duration                       : 25 min 16 s
Bit rate mode                  : Variable
Bit rate                       : 37.4 Mb/s
Maximum bit rate               : 39.0 Mb/s
Width                          : 1 920 pixels
Height                         : 1 080 pixels
Display aspect ratio           : 16:9
Frame rate mode                : Constant
Frame rate                     : 23.976 (24000/1001) FPS
Color space                    : YUV
Chroma subsampling             : 4:2:0
Bit depth                      : 8 bits
Scan type                      : Progressive
Bits/(Pixel*Frame)             : 0.752
Stream size                    : 6.60 GiB (96%)
Default                        : Yes
Forced                         : No
Color range                    : Limited
Color primaries                : BT.709
Transfer characteristics       : BT.709
Matrix coefficients            : BT.709

Audio
ID                             : 2
Format                         : PCM
Format settings                : Little / Signed
Codec ID                       : A_PCM/INT/LIT
Duration                       : 25 min 16 s
Bit rate mode                  : Constant
Bit rate                       : 1 536 kb/s
Channel(s)                     : 2 channels
Sampling rate                  : 48.0 kHz
Frame rate                     : 200.000 FPS (240 SPF)
Bit depth                      : 16 bits
Stream size                    : 278 MiB (4%)
Language                       : Japanese
Default                        : Yes
Forced                         : No

Menu
00:00:00.000                   : en:Chapter 01
00:00:16.057                   : en:Chapter 02
00:01:42.143                   : en:Chapter 03
00:23:48.468                   : en:Chapter 04